Do or die

x2 Do Or Die. Edit the band Modifications history. Популярность. Фэны 108. Do you like this band?Do or Die Mysteries invites you to try to solve a mystery with more twists and turns than a labyrinth… if you can stop laughing long enough to put the clues together. All Do or Die Mysteries are comic, interactive shows. Participate as much or as little as you like. Find 105 ways to say DO OR DIE, along with antonyms, related words, and example sentences at Thesaurus.com, the world's most trusted free thesaurus. Do Or Die is Hyperfly, Technical Sports Apparel Brand for the high performance Jiu Jitsu Athletes and beyond. DO OR DIE statistics, roster, and history. DO OR DIE Iran 0. GG elo rating -. World rank Unranked.Do or Die. Chicago's Do or Die gained a hit with their first single, Po Pimp. Released on a tiny Chicago label, the track became a local hit and sparked the group's signing by Houston's Rap-A-Lot Records. Given a wide release in the summer of 1996, the single hit number 22, increasing the buzz for a full-length from the group. Feb 22, 2003 · Do or Die: Directed by David Jackson. With Shawn Doyle, Polly Shannon, Nigel Bennett, Guylaine St-Onge. A virus causes people to age rapidly. There is an antidote, but it must be taken daily and is under control of a single company. "Do or Die" - Dream Manhunt Minecraft Animated Music Video. Cubical. 00:00. Level Completed! Do or die. You can only submit your score if you have an account.Do or Die.mp3 Channels : 2 Sample Rate : 44100 Precision : 16-bit Duration : 00:03:42.58 = 9815690 samples = 16693.4 CDDA sectors File Size : 10.6M Bit Do or Die One life, one will Black heart, black steel Ignore the hate, it's do or die motherfucker, die motherfucker (This is do or die) My hate is real This fire, it kills...DeepL no longer supports Internet Explorer, so it may not work properly in this browser. For the best experience, please open DeepL in Microsoft Edge or any modern browser.Смертельный выбор. Original title: Choose or Die. Featured in Amanda the Jedi Show: Netflix's CHOOSE OR DIE was a Quibi Reject - Explained (2022).do_or_die. 2,124 likes. содружество отчаянных авантюристов the fellowship of desperate adventurers http://vk.com/we_do_or_die.Do or Die: Directed by Andy Sidaris. With Pat Morita, Erik Estrada, Dona Speir, Roberta Vasquez. Hunted down by six teams of assassins hired by a Japanese crime lord, Federal agents Donna and Nicole struggle to survive, with help from their agency friends.do-or-die: [adjective] doggedly determined to reach one's objective : indomitable. Do or Die. Chicago's Do or Die gained a hit with their first single, Po Pimp. Released on a tiny Chicago label, the track became a local hit and sparked the group's signing by Houston's Rap-A-Lot Records. Given a wide release in the summer of 1996, the single hit number 22, increasing the buzz for a full-length from the group. Do or Die //LISKOOK. Оглавление.Nov 15, 2019 · iPad. iPhone. Description. See who can complete the most dares before tapping out! All you have to do is add each players names and watch the craziness unfold. Do or Die calls out one player at a time with a dare. The player has to decipher whether or not they are bold enough to complete the dare. If they complete the dare, they survive the round. C C G C G Do or die... and the story goes (on, on, on) And the story goes on!Скачать минус песни «Do or Die» 320kbps.LyricsDo Or Die. Heather Faraday. Lyrics not available.Do Or Die: In this Wario Ware style game, pet the cat, do nothing, or give the pirate a high-five are just a few of the strange tasks you ll be asked to perform. Serious awesomeness! Free Funny Games from AddictingGamesParadise - Paradise 1 0 987. Paradise - Do Or Die (Lossless). Категория: Музыка.Do or Die.mp3 Channels : 2 Sample Rate : 44100 Precision : 16-bit Duration : 00:03:42.58 = 9815690 samples = 16693.4 CDDA sectors File Size : 10.6M Bit Do or Die One life, one will Black heart, black steel Ignore the hate, it's do or die motherfucker, die motherfucker (This is do or die) My hate is real This fire, it kills...Best viewed without Internet Explorer, in 1280 x 960 resolution or higher. Do or Die started out in 1999 as a hardcore/metal band.Do-or-die definition, reflecting or characterized by an irrevocable decision to succeed at all costs; desperate; all-out: a do-or-die attempt to halt the invaders. Do or Die turned out to be a Monty Hall-style problem in which host Jeff Probst would offer the contestant a choice of three boxes at that night's Tribal: one which contained a flame, which ...Guess the hidden word in 6 tries. A new puzzle is available each day.Write or Die is back. All new and improved in every possible way. More modes, more customization, more peril, more rewards, more colors, shinier UI, slicker backgrounds.Movie Info. A global crime lord (Pat Morita) puts six death squads on the trail of Hawaii-based CIA agents Donna and Nicole. Rating: R. Genre: Action. Original Language: English.https://click-or-die.ru/app/uploads/2022/08/dsc_0313_img-1024x681-1.jpg. Тимофей Беляков.Definition of do-or-die in the Idioms Dictionary. do-or-die phrase. What does do-or-die expression mean? Definitions by the largest Idiom Dictionary. Do or die, I'm sayin' it's you and I. Two minds steadily manifested on thoughts. Do or die, I'm sayin' it's you and I. Two soldiers 'bout to do this pick up, stick 'em up. Do or die, I'm sayin' it's you and I. It's you and I. Junior's weavin' through the cars. Speed the cops, can't catch.Do Or Die. Edit the band Modifications history. Популярность. Фэны 108. Do you like this band?Jan 02, 2014 · Do or Die: Here is where you'll witness some of the most deadly situations ever caught on tape and put your survival knowledge to the test. Do you have what it takes to come out alive? Do or Die streaming: where to watch online? Currently you are able to watch "Do or Die" streaming on Tubi TV for free with ads or buy it as download on Amazon Video, Alamo on Demand. It is also possible to rent "Do or Die" on Amazon Video, Alamo on Demand online. Time to do or die. I will never forget the moment, the moment. You and I will never die. It's a dark embrace. In the beginning was life, a dawning age.Doe or Die, by rapper AZ. The Charge of the Light Brigade (poem), by Alfred, Lord Tennyson, which contains the often-misquoted line "Theirs not to reason why, / Theirs but to do and die." A phrase used by Gandhi in his Quit India speech. "Scots Wha Hae", by Robert Burns, 1793, contains this phrase in its English-language translation. Find 102 ways to say DO-OR-DIE, along with antonyms, related words, and example sentences at Thesaurus.com, the world's most trusted free thesaurus. Do or Die. Chicago's Do or Die gained a hit with their first single, Po Pimp. Released on a tiny Chicago label, the track became a local hit and sparked the group's signing by Houston's Rap-A-Lot Records. Given a wide release in the summer of 1996, the single hit number 22, increasing the buzz for a full-length from the group. Do-or-die definition, reflecting or characterized by an irrevocable decision to succeed at all costs; desperate; all-out: a do-or-die attempt to halt the invaders. See more.Feb 22, 2003 · Do or Die: Directed by David Jackson. With Shawn Doyle, Polly Shannon, Nigel Bennett, Guylaine St-Onge. A virus causes people to age rapidly. There is an antidote, but it must be taken daily and is under control of a single company. Move or Die is an absurdly fast-paced, 4-player party game where the mechanics change every 20 Move or Die ! As the title says, you have to constantly move in order to stay alive, otherwise your...I Do, or Die - A Killer Arrangement: Directed by Stanley M. Brooks. With Ana Golja, Eric Osborne, Rachel Wilson, Raoul Bhaneja. High school senior Sonya (Ana Golja) is ready to graduate and start college away from her traditional Romani parents, George (Raoul Bhaneja) and Morgan (Rachel Wilson). Fearing Sonya is straying too far from the Romani way of life, George and Morgan are eager to find ...Feb 22, 2003 · Do or Die: Directed by David Jackson. With Shawn Doyle, Polly Shannon, Nigel Bennett, Guylaine St-Onge. A virus causes people to age rapidly. There is an antidote, but it must be taken daily and is under control of a single company. Do Or Die. Shockwave / Online Games / Puzzle games. Recent Plays: 2 Plays. Categories: Puzzle. 4.06. Add to Favorites. Game Instructions. In this Wario Ware-style ... DO_OR_DIE101.  29.  Мужчина.Apr 22, 2001 · Do or Die: With Kate Ashfield, Tom Long, Hugo Speer, William McInnes. Two-part UK drama set in London and Sydney spanning seven years. When Sam and Nicky's six year old son is diagnosed with leukaemia and a perfect blood match is all that can save him, Sam decides now is the right time to trace his real father - back to Sydney where she picked up a violent criminal while backpacking. Do Or Die is Hyperfly, Technical Sports Apparel Brand for the high performance Jiu Jitsu Athletes and beyond. Минусовки и тексты » Do Or Die. Do Or Die - Do you.May 9, 2018 - Explore EABO's board "DO OR DIE", followed by 16,211 people on Pinterest. See more ideas about do or die, crafts, mommo design.if we do or die we should try if we don't try i say bye-bye and if i say bye-bye i'll wonder why we didn't try to do or die. i am free you are four let's take a five we could climb a mountain and landslide we...If you do not allow these cookies then some or all of these services may not function properly. If you do not allow these cookies, you will experience less targeted advertising.Do Or Die. by LJWProduction @LJWProduction. Let's play! Or as I like to call it "I scare too easy!"Do or Die. Chicago's Do or Die gained a hit with their first single, Po Pimp. Released on a tiny Chicago label, the track became a local hit and sparked the group's signing by Houston's Rap-A-Lot Records. Given a wide release in the summer of 1996, the single hit number 22, increasing the buzz for a full-length from the group. Move or Die is an absurdly fast-paced, 4-player party game where the mechanics change every 20 Move or Die ! As the title says, you have to constantly move in order to stay alive, otherwise your...Do or Die Survival Game.'Do or Die' - Dream Manhunt Minecraft Animated Music Video.mp4. 12+. 3 месяца назад.Doe or Die, by rapper AZ. The Charge of the Light Brigade (poem), by Alfred, Lord Tennyson, which contains the often-misquoted line "Theirs not to reason why, / Theirs but to do and die." A phrase used by Gandhi in his Quit India speech. "Scots Wha Hae", by Robert Burns, 1793, contains this phrase in its English-language translation. I Do, or Die - A Killer Arrangement: Directed by Stanley M. Brooks. With Ana Golja, Eric Osborne, Rachel Wilson, Raoul Bhaneja. High school senior Sonya (Ana Golja) is ready to graduate and start college away from her traditional Romani parents, George (Raoul Bhaneja) and Morgan (Rachel Wilson). Fearing Sonya is straying too far from the Romani way of life, George and Morgan are eager to find ...Best viewed without Internet Explorer, in 1280 x 960 resolution or higher. Do or Die started out in 1999 as a hardcore/metal band.Jan 02, 2014 · Do or Die: Here is where you'll witness some of the most deadly situations ever caught on tape and put your survival knowledge to the test. Do you have what it takes to come out alive? National Geographic Channel presents the compelling new series Do or Die. In each episode, we tell the stories of real people caught in desperate situations, and offer viewers the choices these individuals faced in their struggle to survive. Through caught-on-tape moments and CGI, Do or Die is virtually at the scene of a life-or-death situation. But before finding out how the hero survives ... Vinter - Do or Die 2. 01:49. dl.Find Do or die stock images in HD and millions of other royalty-free stock photos, illustrations and vectors in the Shutterstock collection. Thousands of new, high-quality pictures added every day.Find Do or die stock images in HD and millions of other royalty-free stock photos, illustrations and vectors in the Shutterstock collection. Thousands of new, high-quality pictures added every day.By starting the game, you agree to the terms and conditions of the license agreement. Learn more about the game. Fly or Die.You might be looking for: Do or Die, the eleventh episode of Survivor 41 Do or Die, a This article is a disambiguation page for Do or Die. The following is a list of links to pages that might share the same...Do or die crossword clue. This crossword clue Do or die was discovered last seen in the May 20 2022 at the NY Times Mini Crossword. The crossword clue possible answer is available in 4 letters. This answers first letter of which starts with V and can be found at the end of B. We think VERB is the possible answer on this clue.Do or die, I'm sayin' it's you and I. Two minds steadily manifested on thoughts. Do or die, I'm sayin' it's you and I. Two soldiers 'bout to do this pick up, stick 'em up. Do or die, I'm sayin' it's you and I. It's you and I. Junior's weavin' through the cars. Speed the cops, can't catch.Do Or Die. (111) 4.2 1 h 36 min 1991 18+. Remastered in HD! Hunted down by an almost endless wave of assassins, the Federal agents, Donna and Nicole, must stay alive to prevent an imminent crash of the American Stock Market. Shop Mars merch: http://bit.ly/MarsStorehttp://www.thirtysecondstomars.comA Message from JARED LETO:I'm sitting in the dark writing this having just finished...Do Or Die Dream Manhunt Minecraft Animated Music Video.mp3. 03:44 4.91 MB 11.1M.Other usages of the word, convey the knowledge we have by practical or our logical understanding. interpretation also has attitudinal connections. It is now clear to you that the subject of word definitions, similar to the definition of DO OR DIE, is quite complicated and a term and its spin-offs have a broad set of meanings.Do-or-die definition, reflecting or characterized by an irrevocable decision to succeed at all costs; desperate; all-out: a do-or-die attempt to halt the invaders. See more.do or die. 1. adjective Of or pertaining to the last chance to succeed in a given situation, such that the utmost energy and effort must be put forth to do so. Hyphenated if used as a modifier before a noun. Trailing by two points with only 45 seconds remaining, the game is now do or die for the home team. I have to get an A on this essay if I ...Dream, GeorgeNotFound, Sapnap, BadBoyHalo, Antfrost, and Awesamdude fight to the death in this Minecraft animated song by Cubical.Stream Do or Die!!- Spotify...Do-or-die definition, reflecting or characterized by an irrevocable decision to succeed at all costs; desperate; all-out: a do-or-die attempt to halt the invaders. Do or Die. Chicago's Do or Die gained a hit with their first single, Po Pimp. Released on a tiny Chicago label, the track became a local hit and sparked the group's signing by Houston's Rap-A-Lot Records. Given a wide release in the summer of 1996, the single hit number 22, increasing the buzz for a full-length from the group. Do or Die Season 1 (2) 2001 16+ Two-part UK drama set in London and Sydney spanning seven years. When Sam and Nicky's six-year-old son is diagnosed with leukemia and a perfect blood match is all that can save him, Sam decides now is the right time to trace his real father - back to Sydney where she picked up a violent criminal while backpacking.Paradise - Paradise 1 0 987. Paradise - Do Or Die (Lossless). Категория: Музыка.Find 105 ways to say DO OR DIE, along with antonyms, related words, and example sentences at Thesaurus.com, the world's most trusted free thesaurus. "Strengthen your resolve and temporarily reduce the damage you take! Since you don't crouch before performing the move, it's hard for opponents to cancel it."Do or Die is a Power Up Super Attack used by Nail & Piccolo. User thrusts their arms out like Spirit Explosion, which knocks back any nearby enemies and deals only 1% damage. For the following 20 seconds, the user takes half damage. "Strengthen your resolve and temporarily reduce the damage you take! Since you don't crouch before performing the move, it's hard for opponents to cancel it."Do or Die is a Power Up Super Attack used by Nail & Piccolo. User thrusts their arms out like Spirit Explosion, which knocks back any nearby enemies and deals only 1% damage. For the following 20 seconds, the user takes half damage. do-or-die: [adjective] doggedly determined to reach one's objective : indomitable.Nov 15, 2019 · iPad. iPhone. Description. See who can complete the most dares before tapping out! All you have to do is add each players names and watch the craziness unfold. Do or Die calls out one player at a time with a dare. The player has to decipher whether or not they are bold enough to complete the dare. If they complete the dare, they survive the round. Me or Sum (feat. Future & Lil Baby). Die For You. The Weeknd. U-Digg (feat.It is definitely not normal for so many mainly young athletes to suffer from cardiac arrests or to die while What we do know is thatsep there is a concerted world-wide effort to make this information go...Do Or Die is Hyperfly, Technical Sports Apparel Brand for the high performance Jiu Jitsu Athletes and beyond. • AMARANTHE - 'Do Or Die' Feat. Angela Gossow (OFFICIAL MUSIC VIDEO). From the battle inside. We can win this, if we just do or die. What happened to the seasons.Do or Die is an American rap trio originally from the East Garfield Park neighborhood on the West Side of Chicago, consisting of Belo Zero, N.A.R.D. and AK. The group experienced mainstream success with the platinum single "Po Pimp", which peaked at #22 on the Billboard Hot 100.Cg5 - Absolutely anything feat or3o. Die Antwoord - Pitbull terier. Freddie Dredd - Opaul. Fiona Apple - Pure imagination.Me or Sum (feat. Future & Lil Baby). Die For You. The Weeknd. U-Digg (feat.Do Or Die. Grace Jones. Do Or Die.Patton's "improve or die" mentality was said to have created one of the most dominant forces in 1. Losing Is Unacceptable—No Excuse: The greats absolutely detest losing and would rather die than...Bobby Ray - Big Pines Lodge Owner (uncredited) Norm Goyer. ... Norm - Model Helicopter Expert (uncredited) David Parks. ... Jet Ski Assassin (uncredited) Wess Shannon Rahn. Synonyms for DO-OR-DIE: bent (on or upon), bound, decisive, determined, firm, hell-bent (on or upon), intent, out; Antonyms for DO-OR-DIE: faltering, hesitant ... May 3, 2001. 1 h 25 min. 16+. Two-part UK drama set in London and Sydney spanning seven years. When Sam and Nicky's six-year-old son is diagnosed with leukemia and a perfect blood match is all that can save him, Sam decides now is the right time to trace his real father - back to Sydney where she picked up a violent criminal while backpacking. 2. About Press Copyright Contact us Creators Advertise Developers Terms Privacy Policy & Safety How YouTube works Test new features Press Copyright Contact us Creators ... Definition of do-or-die in the Idioms Dictionary. do-or-die phrase. What does do-or-die expression mean? Definitions by the largest Idiom Dictionary. Doe or Die, by rapper AZ. The Charge of the Light Brigade (poem), by Alfred, Lord Tennyson, which contains the often-misquoted line "Theirs not to reason why, / Theirs but to do and die." A phrase used by Gandhi in his Quit India speech. "Scots Wha Hae", by Robert Burns, 1793, contains this phrase in its English-language translation. It has total 64 mods (edited) till now... Play with the shaders u wanted.. Beginner Tip : use stone/wooden hammer to mine. - epic machinery (mekanism, immersive engineering, create) tons of animals (Alex mobs, The Arcaneum, etc.) cool dungeons. mini bosses. weapons (hammer, sycthe, staff and many more..)Feb 22, 2003 · Do or Die: Directed by David Jackson. With Shawn Doyle, Polly Shannon, Nigel Bennett, Guylaine St-Onge. A virus causes people to age rapidly. There is an antidote, but it must be taken daily and is under control of a single company. May 20, 2022 · Do or die crossword clue. This crossword clue Do or die was discovered last seen in the May 20 2022 at the NY Times Mini Crossword. The crossword clue possible answer is available in 4 letters. This answers first letter of which starts with V and can be found at the end of B. We think VERB is the possible answer on this clue. Apr 22, 2001 · Do or Die: With Kate Ashfield, Tom Long, Hugo Speer, William McInnes. Two-part UK drama set in London and Sydney spanning seven years. When Sam and Nicky's six year old son is diagnosed with leukaemia and a perfect blood match is all that can save him, Sam decides now is the right time to trace his real father - back to Sydney where she picked up a violent criminal while backpacking. In Doodle or Die, players create chains of alternating drawings and captions with hilarious results. We won't ever post to your Twitter or Facebook and we won't spam your friends. 2,89 млн подписчиков. AMARANTHE - 'Do Or Die' Feat.Do-or-die definition, reflecting or characterized by an irrevocable decision to succeed at all costs; desperate; all-out: a do-or-die attempt to halt the invaders. Find the song lyrics for Do Or Die - Top Tracks. Discover top playlists and videos from your favorite artists on Shazam! Search for your favorite artists or songs.Do Or Die. Shockwave / Online Games / Puzzle games. Recent Plays: 2 Plays. Categories: Puzzle. 4.06. Add to Favorites. Game Instructions. In this Wario Ware-style ... Do or Die. Chicago's Do or Die gained a hit with their first single, Po Pimp. Released on a tiny Chicago label, the track became a local hit and sparked the group's signing by Houston's Rap-A-Lot Records. Given a wide release in the summer of 1996, the single hit number 22, increasing the buzz for a full-length from the group. Find 105 ways to say DO OR DIE, along with antonyms, related words, and example sentences at Thesaurus.com, the world's most trusted free thesaurus. Doe or Die, by rapper AZ. The Charge of the Light Brigade (poem), by Alfred, Lord Tennyson, which contains the often-misquoted line "Theirs not to reason why, / Theirs but to do and die." A phrase used by Gandhi in his Quit India speech. "Scots Wha Hae", by Robert Burns, 1793, contains this phrase in its English-language translation.Definition of do-or-die in the Idioms Dictionary. do-or-die phrase. What does do-or-die expression mean? Definitions by the largest Idiom Dictionary. do or die definition: 1. said when you are in a situation in which you must take a big risk in order to avoid failure…. Learn more.Do or Die Season 1 (2) 2001 16+ Two-part UK drama set in London and Sydney spanning seven years. When Sam and Nicky's six-year-old son is diagnosed with leukemia and a perfect blood match is all that can save him, Sam decides now is the right time to trace his real father - back to Sydney where she picked up a violent criminal while backpacking.do or die. 1. adjective Of or pertaining to the last chance to succeed in a given situation, such that the utmost energy and effort must be put forth to do so. Hyphenated if used as a modifier before a noun. Trailing by two points with only 45 seconds remaining, the game is now do or die for the home team. I have to get an A on this essay if I ...Do Or Die. Shockwave / Online Games / Puzzle games. Recent Plays: 2 Plays. Categories: Puzzle. 4.06. Add to Favorites. Game Instructions. In this Wario Ware-style ... Shop Mars merch: http://bit.ly/MarsStorehttp://www.thirtysecondstomars.comA Message from JARED LETO:I'm sitting in the dark writing this having just finished...• AMARANTHE - 'Do Or Die' Feat. Angela Gossow (OFFICIAL MUSIC VIDEO). From the battle inside. We can win this, if we just do or die. What happened to the seasons.Feb 22, 2003 · Do or Die: Directed by David Jackson. With Shawn Doyle, Polly Shannon, Nigel Bennett, Guylaine St-Onge. A virus causes people to age rapidly. There is an antidote, but it must be taken daily and is under control of a single company. C C G C G Do or die... and the story goes (on, on, on) And the story goes on!do-or-die: [adjective] doggedly determined to reach one's objective : indomitable.do or die. 1. adjective Of or pertaining to the last chance to succeed in a given situation, such that the utmost energy and effort must be put forth to do so. Hyphenated if used as a modifier before a noun. Trailing by two points with only 45 seconds remaining, the game is now do or die for the home team. I have to get an A on this essay if I ...Move or Die is an absurdly fast-paced, 4-player party game where the mechanics change every 20 Move or Die ! As the title says, you have to constantly move in order to stay alive, otherwise your...Bobby Ray - Big Pines Lodge Owner (uncredited) Norm Goyer. ... Norm - Model Helicopter Expert (uncredited) David Parks. ... Jet Ski Assassin (uncredited) Wess Shannon Rahn. Do or Die is a location-based challenge in Borderlands 2. To perform this challenge in Lynchwood, it is required to find four ECHO recordings scattered throughout the town which detail the reasons for Axton to come to Pandora. It is worth 5 Badass Rank. The first ECHO is inside a waste container on the plaza of Lynchwood Station. The second ECHO can be found on the rooftops in the northern ... Best viewed without Internet Explorer, in 1280 x 960 resolution or higher. Do or Die started out in 1999 as a hardcore/metal band.By starting the game, you agree to the terms and conditions of the license agreement. Learn more about the game. Fly or Die.Keanu Silva "Do Or Die" - out now! Download & stream here: umg.lnk.to/DoOrDie Connect with This is a new dope Song by Tupac Shakur "Do Or Die (2016)" Share and Subscribe for more dope mixes...Jan 02, 2014 · Do or Die: Here is where you'll witness some of the most deadly situations ever caught on tape and put your survival knowledge to the test. Do you have what it takes to come out alive? Does the Dog Die? Offers Crowdsourced Movie Spoilers That Help People Avoid Triggers for Or you need to avoid strobe effects. Or your actual dog just died, and you'd rather not be reminded by a movie.May 20, 2022 · Do or die crossword clue. This crossword clue Do or die was discovered last seen in the May 20 2022 at the NY Times Mini Crossword. The crossword clue possible answer is available in 4 letters. This answers first letter of which starts with V and can be found at the end of B. We think VERB is the possible answer on this clue. May 13, 2022 · Headwaters Park. Fort Wayne, Indiana, United States. Apr 08, 2022 –. Apr 09, 2022. Durbuy Rock Festival. Jinjer / Skald / Skindred / Dark Tranquility / Ensiferum / Caliban / Deicide / Primordial / Barbar'o'rhum / Krisiun / Enthroned / Do Or Die / Crypta / Naglfar / Regarde Les Hommes Tomber / Infected Rain / Rome / Nailed To Obscurity ... Feb 22, 2003 · Do or Die: Directed by David Jackson. With Shawn Doyle, Polly Shannon, Nigel Bennett, Guylaine St-Onge. A virus causes people to age rapidly. There is an antidote, but it must be taken daily and is under control of a single company. if we do or die we should try if we don't try i say bye-bye and if i say bye-bye i'll wonder why we didn't try to do or die. i am free you are four let's take a five we could climb a mountain and landslide we...Do Or Die. Edit the band Modifications history. Популярность. Фэны 108. Do you like this band?Audio for portions of this video has been muted as it appears to contain copyrighted content owned or controlled by a third party.Do Or Die тексты песен.Timofey Bordachev: The UN is no longer fit for purpose, but should it be abolished or reformed?You might be looking for: Do or Die, the eleventh episode of Survivor 41 Do or Die, a This article is a disambiguation page for Do or Die. The following is a list of links to pages that might share the same...Do or Die Mysteries invites you to try to solve a mystery with more twists and turns than a labyrinth… if you can stop laughing long enough to put the clues together. All Do or Die Mysteries are comic, interactive shows. Participate as much or as little as you like. "Strengthen your resolve and temporarily reduce the damage you take! Since you don't crouch before performing the move, it's hard for opponents to cancel it."Do or Die is a Power Up Super Attack used by Nail & Piccolo. User thrusts their arms out like Spirit Explosion, which knocks back any nearby enemies and deals only 1% damage. For the following 20 seconds, the user takes half damage. Do or Die is an American rap trio originally from the East Garfield Park neighborhood on the West Side of Chicago, consisting of Belo Zero, N.A.R.D. and AK. The group experienced mainstream success with the platinum single "Po Pimp", which peaked at #22 on the Billboard Hot 100.Synonyms for DO-OR-DIE: bent (on or upon), bound, decisive, determined, firm, hell-bent (on or upon), intent, out; Antonyms for DO-OR-DIE: faltering, hesitant ... Do or Die Season 1 (2) 2001 16+ Two-part UK drama set in London and Sydney spanning seven years. When Sam and Nicky's six-year-old son is diagnosed with leukemia and a perfect blood match is all that can save him, Sam decides now is the right time to trace his real father - back to Sydney where she picked up a violent criminal while backpacking.https://click-or-die.ru/app/uploads/2022/08/dsc_0313_img-1024x681-1.jpg. Тимофей Беляков.Earn to Die: Upgrade your car and drive your way through hordes of zombies in order to reach your destination - alive.Feb 22, 2003 · Do or Die: Directed by David Jackson. With Shawn Doyle, Polly Shannon, Nigel Bennett, Guylaine St-Onge. A virus causes people to age rapidly. There is an antidote, but it must be taken daily and is under control of a single company. Add to list. Summary. The following content is intended for mature audiences and may contain sexual themes, gore, violence and/or strong language. Discretion is advised.2,89 млн подписчиков. AMARANTHE - 'Do Or Die' Feat.Jan 02, 2014 · Do or Die: Here is where you'll witness some of the most deadly situations ever caught on tape and put your survival knowledge to the test. Do you have what it takes to come out alive? Move or Die is an absurdly fast-paced, 4-player multiplayer party game packed full of crazy fun game modes and available now on Steam. Made by @someawesomeguys.Time to do or die. I will never forget the moment, the moment. You and I will never die. It's a dark embrace. In the beginning was life, a dawning age.Guess the hidden word in 6 tries. A new puzzle is available each day.Definition of do-or-die in the Idioms Dictionary. do-or-die phrase. What does do-or-die expression mean? Definitions by the largest Idiom Dictionary. Apr 22, 2001 · Do or Die: With Kate Ashfield, Tom Long, Hugo Speer, William McInnes. Two-part UK drama set in London and Sydney spanning seven years. When Sam and Nicky's six year old son is diagnosed with leukaemia and a perfect blood match is all that can save him, Sam decides now is the right time to trace his real father - back to Sydney where she picked up a violent criminal while backpacking. do_or_die. 2,124 likes. содружество отчаянных авантюристов the fellowship of desperate adventurers http://vk.com/we_do_or_die.Feb 22, 2003 · Do or Die: Directed by David Jackson. With Shawn Doyle, Polly Shannon, Nigel Bennett, Guylaine St-Onge. A virus causes people to age rapidly. There is an antidote, but it must be taken daily and is under control of a single company. May 3, 2001. 1 h 25 min. 16+. Two-part UK drama set in London and Sydney spanning seven years. When Sam and Nicky's six-year-old son is diagnosed with leukemia and a perfect blood match is all that can save him, Sam decides now is the right time to trace his real father - back to Sydney where she picked up a violent criminal while backpacking. 2. Do or Die. Chicago's Do or Die gained a hit with their first single, Po Pimp. Released on a tiny Chicago label, the track became a local hit and sparked the group's signing by Houston's Rap-A-Lot Records. Given a wide release in the summer of 1996, the single hit number 22, increasing the buzz for a full-length from the group. It has total 64 mods (edited) till now... Play with the shaders u wanted.. Beginner Tip : use stone/wooden hammer to mine. - epic machinery (mekanism, immersive engineering, create) tons of animals (Alex mobs, The Arcaneum, etc.) cool dungeons. mini bosses. weapons (hammer, sycthe, staff and many more..)About Press Copyright Contact us Creators Advertise Developers Terms Privacy Policy & Safety How YouTube works Test new features Press Copyright Contact us Creators ... Definition of do-or-die in the Idioms Dictionary. do-or-die phrase. What does do-or-die expression mean? Definitions by the largest Idiom Dictionary. Jan 02, 2014 · Do or Die: Here is where you'll witness some of the most deadly situations ever caught on tape and put your survival knowledge to the test. Do you have what it takes to come out alive? Do-or-Die Survival Training | Boku no Hero Academia: Ikinokore! Kesshi no Survival Kunren онлайн.Do Or Die. Shockwave / Online Games / Puzzle games. Recent Plays: 2 Plays. Categories: Puzzle. 4.06. Add to Favorites. Game Instructions. In this Wario Ware-style ... Do or Die is the fourteenth episode in Season 2 of Heartland. It aired February 15, 2009. Clint brings two tough kids on probation to Heartland forcing Ty to deal with a part of his past he'd rather forget. Ty's former probation officer brings two troubled kids by the ranch, who end up causing lots of grief. The two kids are going around making trouble, one of the kids doesn't even talk which ... Feb 22, 2003 · Do or Die: Directed by David Jackson. With Shawn Doyle, Polly Shannon, Nigel Bennett, Guylaine St-Onge. A virus causes people to age rapidly. There is an antidote, but it must be taken daily and is under control of a single company. Do Or Die is Hyperfly, Technical Sports Apparel Brand for the high performance Jiu Jitsu Athletes and beyond. Feb 22, 2003 · Do or Die: Directed by David Jackson. With Shawn Doyle, Polly Shannon, Nigel Bennett, Guylaine St-Onge. A virus causes people to age rapidly. There is an antidote, but it must be taken daily and is under control of a single company. Movie Info. A global crime lord (Pat Morita) puts six death squads on the trail of Hawaii-based CIA agents Donna and Nicole. Rating: R. Genre: Action. Original Language: English.Doe or Die, by rapper AZ. The Charge of the Light Brigade (poem), by Alfred, Lord Tennyson, which contains the often-misquoted line "Theirs not to reason why, / Theirs but to do and die." A phrase used by Gandhi in his Quit India speech. "Scots Wha Hae", by Robert Burns, 1793, contains this phrase in its English-language translation. Feb 22, 2003 · Do or Die: Directed by David Jackson. With Shawn Doyle, Polly Shannon, Nigel Bennett, Guylaine St-Onge. A virus causes people to age rapidly. There is an antidote, but it must be taken daily and is under control of a single company. when you are willing to do anything for someone you love or someone you really appreciate in your life. the person who you stand by in any problem and vice versa. the term "ride till the end or die trying".Bobby Ray - Big Pines Lodge Owner (uncredited) Norm Goyer. ... Norm - Model Helicopter Expert (uncredited) David Parks. ... Jet Ski Assassin (uncredited) Wess Shannon Rahn. Definition of do-or-die in the Idioms Dictionary. do-or-die phrase. What does do-or-die expression mean? Definitions by the largest Idiom Dictionary. Audio for portions of this video has been muted as it appears to contain copyrighted content owned or controlled by a third party.Jul 29, 2019 · 1 That do-or-die Davy Blooming Crockett spirit. 2 The airline spent $120 million in a do-or-die effort to save the company. 3 This do-or-die attitude clashes with the caution advocated by the naive inductivist. 4 Besides [TranslateEN.com], his own party’s do-or-die tendency will now be vigilant against any hint of gradualism. Do or Die. Chicago's Do or Die gained a hit with their first single, Po Pimp. Released on a tiny Chicago label, the track became a local hit and sparked the group's signing by Houston's Rap-A-Lot Records. Given a wide release in the summer of 1996, the single hit number 22, increasing the buzz for a full-length from the group. May 20, 2022 · Do or die crossword clue. This crossword clue Do or die was discovered last seen in the May 20 2022 at the NY Times Mini Crossword. The crossword clue possible answer is available in 4 letters. This answers first letter of which starts with V and can be found at the end of B. We think VERB is the possible answer on this clue. Do or Die Season 1 (2) 2001 16+ Two-part UK drama set in London and Sydney spanning seven years. When Sam and Nicky's six-year-old son is diagnosed with leukemia and a perfect blood match is all that can save him, Sam decides now is the right time to trace his real father - back to Sydney where she picked up a violent criminal while backpacking.Dxrk ダーク DO OR DIE. Duration: 1:36 File type: mp3. Apr 22, 2001 · Do or Die: With Kate Ashfield, Tom Long, Hugo Speer, William McInnes. Two-part UK drama set in London and Sydney spanning seven years. When Sam and Nicky's six year old son is diagnosed with leukaemia and a perfect blood match is all that can save him, Sam decides now is the right time to trace his real father - back to Sydney where she picked up a violent criminal while backpacking. Do or Die streaming: where to watch online? Currently you are able to watch "Do or Die" streaming on Tubi TV for free with ads or buy it as download on Amazon Video, Alamo on Demand. It is also possible to rent "Do or Die" on Amazon Video, Alamo on Demand online. Do Or Die. Shockwave / Online Games / Puzzle games. Recent Plays: 2 Plays. Categories: Puzzle. 4.06. Add to Favorites. Game Instructions. In this Wario Ware-style ... Doe or Die, by rapper AZ. The Charge of the Light Brigade (poem), by Alfred, Lord Tennyson, which contains the often-misquoted line "Theirs not to reason why, / Theirs but to do and die." A phrase used by Gandhi in his Quit India speech. "Scots Wha Hae", by Robert Burns, 1793, contains this phrase in its English-language translation. Feb 22, 2003 · Do or Die: Directed by David Jackson. With Shawn Doyle, Polly Shannon, Nigel Bennett, Guylaine St-Onge. A virus causes people to age rapidly. There is an antidote, but it must be taken daily and is under control of a single company. If you do not allow these cookies we will not be able to monitor the performance of our services. Przechowywanie informacji lub dostęp do informacji już przechowywanych na urządzeniu...Here is the answer for: Do or die crossword clue answers, solutions for the popular game New York Times Mini Crossword. This clue belongs to New York Times Mini Crossword May 20 2022 Answers. On our site, you'll be able to find every answer regarding The New York Times The Mini Crossword.Apr 22, 2001 · Do or Die: With Kate Ashfield, Tom Long, Hugo Speer, William McInnes. Two-part UK drama set in London and Sydney spanning seven years. When Sam and Nicky's six year old son is diagnosed with leukaemia and a perfect blood match is all that can save him, Sam decides now is the right time to trace his real father - back to Sydney where she picked up a violent criminal while backpacking. Press enter or submit to search. Upload song. Print this page or download a PDF chord sheet. Video demo.May 13, 2022 · Headwaters Park. Fort Wayne, Indiana, United States. Apr 08, 2022 –. Apr 09, 2022. Durbuy Rock Festival. Jinjer / Skald / Skindred / Dark Tranquility / Ensiferum / Caliban / Deicide / Primordial / Barbar'o'rhum / Krisiun / Enthroned / Do Or Die / Crypta / Naglfar / Regarde Les Hommes Tomber / Infected Rain / Rome / Nailed To Obscurity ... You might be looking for: Do or Die, the eleventh episode of Survivor 41 Do or Die, a This article is a disambiguation page for Do or Die. The following is a list of links to pages that might share the same...Move or Die is an absurdly fast-paced, 4-player multiplayer party game packed full of crazy fun game modes and available now on Steam. Made by @someawesomeguys.Do Or Die. Shockwave / Online Games / Puzzle games. Recent Plays: 2 Plays. Categories: Puzzle. 4.06. Add to Favorites. Game Instructions. In this Wario Ware-style game, pet the cat, do nothing, or give the pirate a high-five are just a few of the strange tasks you'll be asked to perform. Serious awesomeness!Dxrk ダーク DO OR DIE. Duration: 1:36 File type: mp3.I Do, or Die - A Killer Arrangement: Directed by Stanley M. Brooks. With Ana Golja, Eric Osborne, Rachel Wilson, Raoul Bhaneja. High school senior Sonya (Ana Golja) is ready to graduate and start college away from her traditional Romani parents, George (Raoul Bhaneja) and Morgan (Rachel Wilson). Fearing Sonya is straying too far from the Romani way of life, George and Morgan are eager to find ...Dream, GeorgeNotFound, Sapnap, BadBoyHalo, Antfrost, and Awesamdude fight to the death in this Minecraft animated song by Cubical.Stream Do or Die!!- Spotify...Jan 02, 2014 · Do or Die: Here is where you'll witness some of the most deadly situations ever caught on tape and put your survival knowledge to the test. Do you have what it takes to come out alive? Earn to Die: Upgrade your car and drive your way through hordes of zombies in order to reach your destination - alive.Users who love Do Or Die - Remaster 2002. Key, BPM (tempo) and time signature of Do Or Die - Remaster 2002.Apr 22, 2001 · Do or Die: With Kate Ashfield, Tom Long, Hugo Speer, William McInnes. Two-part UK drama set in London and Sydney spanning seven years. When Sam and Nicky's six year old son is diagnosed with leukaemia and a perfect blood match is all that can save him, Sam decides now is the right time to trace his real father - back to Sydney where she picked up a violent criminal while backpacking. Best viewed without Internet Explorer, in 1280 x 960 resolution or higher. Do or Die started out in 1999 as a hardcore/metal band.Do Or Die is Hyperfly, Technical Sports Apparel Brand for the high performance Jiu Jitsu Athletes and beyond. DeepL no longer supports Internet Explorer, so it may not work properly in this browser. For the best experience, please open DeepL in Microsoft Edge or any modern browser.Nov 15, 2019 · iPad. iPhone. Description. See who can complete the most dares before tapping out! All you have to do is add each players names and watch the craziness unfold. Do or Die calls out one player at a time with a dare. The player has to decipher whether or not they are bold enough to complete the dare. If they complete the dare, they survive the round. Do or Die is a 1991 action film starring Cynthia Brimhall, Pat Morita and Erik Estrada. It was directed, written and produced by Andy Sidaris . It's the sixth installment in the Triple B series. Doe or Die, by rapper AZ. The Charge of the Light Brigade (poem), by Alfred, Lord Tennyson, which contains the often-misquoted line "Theirs not to reason why, / Theirs but to do and die." A phrase used by Gandhi in his Quit India speech. "Scots Wha Hae", by Robert Burns, 1793, contains this phrase in its English-language translation.Ауф_. Админ. Do-or-die редактировать.Do or Die is an American rap trio originally from the East Garfield Park neighborhood on the West Side of Chicago, consisting of Belo Zero, N.A.R.D. and AK.The group experienced mainstream success with the platinum single "Po Pimp", which peaked at #22 on the Billboard Hot 100. Do Or Die Dream Manhunt Minecraft Animated Music Video - Качайте музыку mp3 бесплатно в DOBERMAN INFINITY Do Or Die Music Video Short Ver From HiGH LOW. 9.17 MB 00:06:58 48K.Do Or Die. Grace Jones. Do Or Die.Do or Die Season 1 (2) 2001 16+ Two-part UK drama set in London and Sydney spanning seven years. When Sam and Nicky's six-year-old son is diagnosed with leukemia and a perfect blood match is all that can save him, Sam decides now is the right time to trace his real father - back to Sydney where she picked up a violent criminal while backpacking.Do Or Die. (111) 4.2 1 h 36 min 1991 18+. Remastered in HD! Hunted down by an almost endless wave of assassins, the Federal agents, Donna and Nicole, must stay alive to prevent an imminent crash of the American Stock Market.Do-or-die definition, reflecting or characterized by an irrevocable decision to succeed at all costs; desperate; all-out: a do-or-die attempt to halt the invaders. Do or Die is an American rap trio originally from the East Garfield Park neighborhood on the West Side of Chicago, consisting of Belo Zero, N.A.R.D. and AK.The group experienced mainstream success with the platinum single "Po Pimp", which peaked at #22 on the Billboard Hot 100. Do or Die Survival Game.Doe or Die, by rapper AZ. The Charge of the Light Brigade (poem), by Alfred, Lord Tennyson, which contains the often-misquoted line "Theirs not to reason why, / Theirs but to do and die." A phrase used by Gandhi in his Quit India speech. "Scots Wha Hae", by Robert Burns, 1793, contains this phrase in its English-language translation. Do Or Die. (111) 4.2 1 h 36 min 1991 18+. Remastered in HD! Hunted down by an almost endless wave of assassins, the Federal agents, Donna and Nicole, must stay alive to prevent an imminent crash of the American Stock Market. Do Or Die is Hyperfly, Technical Sports Apparel Brand for the high performance Jiu Jitsu Athletes and beyond. ... Do not use bleach! Will my Gi shrink? Typically our kimonos will have a shrink rate of approximately 1-3 inches with a hot wash and machine dry. Our Starlyte and heavier weighted kimonos will have a minimal shrink rate ...Feb 22, 2003 · Do or Die: Directed by David Jackson. With Shawn Doyle, Polly Shannon, Nigel Bennett, Guylaine St-Onge. A virus causes people to age rapidly. There is an antidote, but it must be taken daily and is under control of a single company. Write or Die is back. All new and improved in every possible way. More modes, more customization, more peril, more rewards, more colors, shinier UI, slicker backgrounds.Do Or Die. Shockwave / Online Games / Puzzle games. Recent Plays: 2 Plays. Categories: Puzzle. 4.06. Add to Favorites. Game Instructions. In this Wario Ware-style ... Find 102 ways to say DO-OR-DIE, along with antonyms, related words, and example sentences at Thesaurus.com, the world's most trusted free thesaurus. Do or Die. Chicago's Do or Die gained a hit with their first single, Po Pimp. Released on a tiny Chicago label, the track became a local hit and sparked the group's signing by Houston's Rap-A-Lot Records. Given a wide release in the summer of 1996, the single hit number 22, increasing the buzz for a full-length from the group. Best viewed without Internet Explorer, in 1280 x 960 resolution or higher. Do or Die started out in 1999 as a hardcore/metal band.It is definitely not normal for so many mainly young athletes to suffer from cardiac arrests or to die while What we do know is thatsep there is a concerted world-wide effort to make this information go...Do or die crossword clue. This crossword clue Do or die was discovered last seen in the May 20 2022 at the NY Times Mini Crossword. The crossword clue possible answer is available in 4 letters. This answers first letter of which starts with V and can be found at the end of B. We think VERB is the possible answer on this clue.Find 105 ways to say DO OR DIE, along with antonyms, related words, and example sentences at Thesaurus.com, the world's most trusted free thesaurus. Feb 22, 2003 · Do or Die: Directed by David Jackson. With Shawn Doyle, Polly Shannon, Nigel Bennett, Guylaine St-Onge. A virus causes people to age rapidly. There is an antidote, but it must be taken daily and is under control of a single company. Do or Die Survival Game.DO OR DIE statistics, roster, and history. DO OR DIE Iran 0. GG elo rating -. World rank Unranked.Error Failed to load: js/plugins/OggOnly.js.Do Or Die. Edit the band Modifications history. Популярность. Фэны 108. Do you like this band?Synonyms for DO-OR-DIE: bent (on or upon), bound, decisive, determined, firm, hell-bent (on or upon), intent, out; Antonyms for DO-OR-DIE: faltering, hesitant ... Do or Die is a 1991 action film starring Cynthia Brimhall, Pat Morita and Erik Estrada. It was directed, written and produced by Andy Sidaris . It's the sixth installment in the Triple B series. Do or Die is a 1991 action film starring Cynthia Brimhall, Pat Morita and Erik Estrada. It was directed, written and produced by Andy Sidaris . It's the sixth installment in the Triple B series. Do-or-die definition, reflecting or characterized by an irrevocable decision to succeed at all costs; desperate; all-out: a do-or-die attempt to halt the invaders. if we do or die we should try if we don't try i say bye-bye and if i say bye-bye i'll wonder why we didn't try to do or die. i am free you are four let's take a five we could climb a mountain and landslide we...Timofey Bordachev: The UN is no longer fit for purpose, but should it be abolished or reformed?Jan 02, 2014 · Do or Die: Here is where you'll witness some of the most deadly situations ever caught on tape and put your survival knowledge to the test. Do you have what it takes to come out alive? Audio for portions of this video has been muted as it appears to contain copyrighted content owned or controlled by a third party.Earn to Die: Upgrade your car and drive your way through hordes of zombies in order to reach your destination - alive.Timofey Bordachev: The UN is no longer fit for purpose, but should it be abolished or reformed?Feb 22, 2003 · Do or Die: Directed by David Jackson. With Shawn Doyle, Polly Shannon, Nigel Bennett, Guylaine St-Onge. A virus causes people to age rapidly. There is an antidote, but it must be taken daily and is under control of a single company. Feb 22, 2003 · Do or Die: Directed by David Jackson. With Shawn Doyle, Polly Shannon, Nigel Bennett, Guylaine St-Onge. A virus causes people to age rapidly. There is an antidote, but it must be taken daily and is under control of a single company. Feb 22, 2003 · Do or Die: Directed by David Jackson. With Shawn Doyle, Polly Shannon, Nigel Bennett, Guylaine St-Onge. A virus causes people to age rapidly. There is an antidote, but it must be taken daily and is under control of a single company. Do Or Die. by LJWProduction @LJWProduction. Let's play! Or as I like to call it "I scare too easy!"If you do not allow these cookies we will not be able to monitor the performance of our services. Przechowywanie informacji lub dostęp do informacji już przechowywanych na urządzeniu...Do or Die.mp3 Channels : 2 Sample Rate : 44100 Precision : 16-bit Duration : 00:03:42.58 = 9815690 samples = 16693.4 CDDA sectors File Size : 10.6M Bit Do or Die One life, one will Black heart, black steel Ignore the hate, it's do or die motherfucker, die motherfucker (This is do or die) My hate is real This fire, it kills...Paradise - Paradise 1 0 987. Paradise - Do Or Die (Lossless). Категория: Музыка.Do or die, I'm sayin' it's you and I. Two minds steadily manifested on thoughts. Do or die, I'm sayin' it's you and I. Two soldiers 'bout to do this pick up, stick 'em up. Do or die, I'm sayin' it's you and I. It's you and I. Junior's weavin' through the cars. Speed the cops, can't catch.Alterportal V2 » Новые треки » Amaranthe - Do or Die (Single) (2020).It is definitely not normal for so many mainly young athletes to suffer from cardiac arrests or to die while What we do know is thatsep there is a concerted world-wide effort to make this information go...Paradise - Paradise 1 0 987. Paradise - Do Or Die (Lossless). Категория: Музыка.Ride or Die was originally a biker term meaning if you couldn't ride you'd rather die. She's my Ride or Die Keith and I went skydiving this afternoon!Do or Die is a 1991 action film starring Cynthia Brimhall, Pat Morita and Erik Estrada. It was directed, written and produced by Andy Sidaris . It's the sixth installment in the Triple B series. Do or Die is a location-based challenge in Borderlands 2. To perform this challenge in Lynchwood, it is required to find four ECHO recordings scattered throughout the town which detail the reasons for Axton to come to Pandora. It is worth 5 Badass Rank. The first ECHO is inside a waste container on the plaza of Lynchwood Station. The second ECHO can be found on the rooftops in the northern ... About Press Copyright Contact us Creators Advertise Developers Terms Privacy Policy & Safety How YouTube works Test new features Press Copyright Contact us Creators ... Do or Die Season 1 (2) 2001 16+ Two-part UK drama set in London and Sydney spanning seven years. When Sam and Nicky's six-year-old son is diagnosed with leukemia and a perfect blood match is all that can save him, Sam decides now is the right time to trace his real father - back to Sydney where she picked up a violent criminal while backpacking.Do or Die - EXPENSIVE LOVE.mp3 06. Do or Die - NEVER THOUGHT I LOSE.mp3 07.Your Turn To Die is a negotiation/adventure game by Nankidai about a deadly game, where the participants choose who Your Turn To Die -Death Game By Majority- (Kimi ga Shine) is a freeware...